Medieval CUE Splitter keys

Medieval CUE Splitter 1.2 reg keys

Free tool to extract audio tracks using a CUE or XMCD file Download Medieval CUE Splitter 1.2 crack – Simple piece of software designed to help you split files in the CUE format using batch processing, modify disk or track data, and alter the file and tags settings (title case, upper case, lower case, sentence case) Medieval CUE Splitter full version crack is a free tool that makes the extraction of tracks from big audio files a simple and easy task. The program works efficiently with both CUE and XMCD (freedb) formats, and will create perfect MP3, APE, FLAC, OGG, WAV and WMA audio files following the parameters specified in the CUE file. Unicode, UTF8, and ANSI CUE files are supported.

Medieval CUE Splitter free download

Simple piece of software designed to help you split files in the CUE format using batch processing, modify disk or track data, and alter the file and tags settings (title case, upper case, lower case, sentence case)

Editing features

You can edit the comment, year and select the genre, as well as enable file masks and the option to replace spaces with underscores. But you can also set the file and tags settings (title case, upper case, lower case, sentence case), as well as add and invert gaps.

The program’s interface is nothing spectacular; in fact, it looks and feels rather sterile. However, its commands are clearly marked, and we had no difficulty navigating it or understanding its controls. This program’s biggest problem is that it doesn’t support every audio format. While it’s compatible with MP3, WAV, and other popular formats, these files need to have a CUE text file embedded within them to work with Medieval CUE Splitter 1.2 For Pc Free Download. These are more commonly found in long files, such as entire concerts. Once we’d located the appropriate files, the program split the file automatically in a matter of seconds.

Main Features:

  • Tracks can be selected and extracted individually
  • None
  • Performed as advertised and split a long classical piece into its component parts.
  • Should do what you want…
  • Does everything it’s supposed to!! All the songs are split and it does it in a matter of seconds!! It’s awesome!
  • none encountered so far
Medieval CUE Splitter Full Version keygen

Medieval CUE Splitter 1.2 activator (formerly known as Enfis The Paladin CUE Splitter) allows you to extract all or selected audio tracks from a single source file in one single operation. The program will extract the tracks in the same format as the file they come from, so no transcoding is done. All the information already included in the CUE file will be copied directly to the split tracks (it supports ID3v1, ID3v2, Lyrics, Vorbis Comment and APE tag files).

System Requirements for Medieval CUE Splitter:

  • Pentium II 2.0 Ghz
  • 256 Mb RAM
  • Windows 2003, Windows Vista, Windows XP, Windows 2K
  • Homepage: www.medieval.it
  • Author Medieval Software
  • Last version 1.2

When I split the files they are named track#1, Track#2, etc. Is there a setting to keep the original track names?

If you don’t specify a CUE file with the correct timings and file name, the software will split it based on timing only while generating Track1, Track2, etc., automatically. You need a proper CUE file to be able to export using correct file names.
This is how a CUE file looks:

PERFORMER "Gareth Emery"
TITLE "Electric For Life 045 (2015-09-29) [Podcast]"
FILE "GarethEmery_ElectricForLife045.mp3" MP3
  TRACK 01 AUDIO
    PERFORMER "Electric For Life"
    TITLE "Intro"
    INDEX 01 00:00:00
  TRACK 02 AUDIO
    PERFORMER "AĆ©rotique & Parra For Cuva"
    TITLE "Unique"
    INDEX 01 00:26:26
  TRACK 03 AUDIO
    PERFORMER "Tristam"
    TITLE "Crave"
    INDEX 01 03:09:27

What’s new in last version:

Fixed search problem on CUE load
Fixed strange menu bugs (vertical line)
Removed nag screen from main window and added Belurusian language.
Porting from Enfis CUE Splitter to Medieval CUE Splitter
Fixed: All minor bugs

Medieval CUE Splitter 1.2 Activator Free Download, Medieval CUE Splitter 1.1 full version crack, Medieval CUE Splitter 1.0 Full Version Registered

6 comments

  1. Does anyone knows if it’s possible to make the program split all files with the name of the track as the name of the file itself, instead of having each file named “track 1,2 or 3”.

  2. Excellent program for splitting files. Can’t reccomend it enough. Cannot believe it’s for free especially after payng for APE RIPPER and FLAC RIPPER, Medieval splits’em all and , I repeat it , for FREE

Leave a Reply to Mohamed Adan Cancel reply

Your email address will not be published. Required fields are marked *

*

code